BitTorrent клиенты



Желтый платочек счастья / The Yellow Handkerchief / Shiawase no kiiroi hankachi (Ёдзи Ямада / Yôji Yamada) [1977, Япония, драма, комедия, BDRemux 1080p] VO (О. Воротилин) + Sub Rus, Eng + Original Jap

Ответить на тему
 
Автор Сообщение

Angel ®

Пол: Не указан

Стаж: 1 год

Сообщений: 1346

Создавать темы 05-Фев-2018 18:18

[Цитировать]

Желтый платочек счастья / The Yellow Handkerchief / Shiawase no kiiroi hankachi Страна: Япония
Студия: Shôchiku Eiga
Жанр: драма, комедия
Год выпуска: 1977
Продолжительность: 01:48:44
Перевод: Одноголосый закадровый О. Воротилин
Субтитры: русские Петр Чайников (livekino), английские
Оригинальная аудиодорожка: японский
Режиссер: Ёдзи Ямада / Yôji Yamada
В ролях: Кэн Такакура, Тиэко Байсё, Тэцуя Такэда, Каори Момои, Хатиро Тако, Хисао Дадзай, Мари Окамото, Киёси Ацуми, Макото Акацука, Акихико Ханю, Хидетоши Хасегава, Кадзухико Касай, Хиромаса Кавахара, Мидори Кавай, Ёсино Тани, Сакаэ Умэдзу, Коэи Ямамото и др.
Описание: История разворачивается вокруг бывшего убийцы, освобожденного под честное слово, пытающемуся вернуться домой в Хоккайдо, чтобы встретиться со своей женой.
-
Сэмпл IMDB Кинопоиск
-
Доп. информация:
Спонсоры озвучки - dmyan, porvaliparus
Тип релиза: BDRemux 1080p (Shiawase.no.kiiroi.hankachi.1977.BDRemux.HDCLUB)
Контейнер: MKV
Видео: AVC / 1920x1080 / 16:9 / 23.976 fps / 37952 Kbps / High@L4.1
Аудио 1 Rus: AC3 / 48.0 KHz / 2.0 / 192 kbps / VO / О. Воротилин
Аудио 2 Rus: FLAC / 48.0 KHz / 2.0 / 286 kbps / 16 bit / О. Воротилин
Аудио 3 Jap: FLAC / 48.0 KHz / 2.0 / 281 kbps / 16 bit
Формат субтитров: softsub (SRT)

MediaInfo

Общее
Уникальный идентификатор : 250758949727745889602338347967043154726 (0xBCA66AC13126B79E8A3D8B644DDD3326)
Полное имя : E:\!_HD\porvaliparus\The.Yellow.Handkerchief.1977.BDRemux.1080p.mkv
Формат : Matroska
Версия формата : Version 4 / Version 2
Размер файла : 29,4 Гбайт
Продолжительность : 1 ч. 48 м.
Режим общего битрейта : Переменный
Общий поток : 38,7 Мбит/сек
Название фильма : The.Yellow.Handkerchief.1977.BDRemux.1080p-porvaliparus
Дата кодирования : UTC 2017-07-11 06:21:31
Программа кодирования : mkvmerge v13.0.0 ('The Juggler') 64bit
Библиотека кодирования : libebml v1.3.4 + libmatroska v1.4.5
Видео
Идентификатор : 1
Формат : AVC
Формат/Информация : Advanced Video Codec
Профиль формата : High@L4.1
Параметр CABAC формата : Да
Параметр RefFrames формата : 4 кадра
Идентификатор кодека : V_MPEG4/ISO/AVC
Продолжительность : 1 ч. 48 м.
Вид битрейта : Переменный
Битрейт : 38,0 Мбит/сек
Максимальный битрейт : 40,0 Мбит/сек
Ширина : 1920 пикселей
Высота : 1080 пикселей
Соотношение сторон : 16:9
Режим частоты кадров : Постоянный
Частота кадров : 23,976 (24000/1001) кадра/сек
Цветовое пространство : YUV
Субдискретизация насыщенности : 4:2:0
Битовая глубина : 8 бит
Тип развёртки : Прогрессивная
Бит/(Пиксели*Кадры) : 0.763
Размер потока : 28,8 Гбайт (98%)
Заголовок : The.Yellow.Handkerchief.1977.BDRemux.1080p
Default : Да
Forced : Нет
Цветовой диапазон : Limited
Основные цвета : BT.709
Характеристики трансфера : BT.709
Коэффициенты матрицы : BT.709
Аудио #1
Идентификатор : 2
Формат : AC-3
Формат/Информация : Audio Coding 3
Параметр Endianness формата : Big
Идентификатор кодека : A_AC3
Продолжительность : 1 ч. 48 м.
Вид битрейта : Постоянный
Битрейт : 192 Кбит/сек
Каналы : 2 канала
Расположение каналов : Front: L R
Частота : 48,0 КГц
Частота кадров : 31,250 кадров/сек (1536 SPF)
Битовая глубина : 16 бит
Метод сжатия : С потерями
Размер потока : 149 Мбайт (0%)
Заголовок : VO [О. Воротилин]
Язык : Russian
ServiceKind/String : Complete Main
Default : Да
Forced : Нет
Аудио #2
Идентификатор : 3
Формат : FLAC
Формат/Информация : Free Lossless Audio Codec
Идентификатор кодека : A_FLAC
Продолжительность : 1 ч. 48 м.
Вид битрейта : Переменный
Битрейт : 286 Кбит/сек
Каналы : 2 канала
Расположение каналов : Front: L R
Частота : 48,0 КГц
Частота кадров : 11,719 кадров/сек (4096 SPF)
Битовая глубина : 16 бит
Размер потока : 222 Мбайт (1%)
Заголовок : VO [О. Воротилин]
Библиотека кодирования : libFLAC 20080709 (UTC 2008-07-09)
Язык : Russian
Default : Нет
Forced : Нет
Аудио #3
Идентификатор : 4
Формат : FLAC
Формат/Информация : Free Lossless Audio Codec
Идентификатор кодека : A_FLAC
Продолжительность : 1 ч. 48 м.
Вид битрейта : Переменный
Битрейт : 281 Кбит/сек
Каналы : 2 канала
Расположение каналов : Front: L R
Частота : 48,0 КГц
Частота кадров : 11,719 кадров/сек (4096 SPF)
Битовая глубина : 16 бит
Размер потока : 219 Мбайт (1%)
Библиотека кодирования : libFLAC 1.2.1 (UTC 2007-09-17)
Язык : Japanese
Default : Нет
Forced : Нет
Текст #1
Идентификатор : 5
Формат : UTF-8
Идентификатор кодека : S_TEXT/UTF8
Идентификатор кодека/Информация : UTF-8 Plain Text
Продолжительность : 1 ч. 46 м.
Битрейт : 52 бит/сек
ElementCount : 1102
Размер потока : 41,1 Кбайт (0%)
Заголовок : Петр Чайников (livekino)
Язык : Russian
Default : Нет
Forced : Нет
Текст #2
Идентификатор : 6
Формат : UTF-8
Идентификатор кодека : S_TEXT/UTF8
Идентификатор кодека/Информация : UTF-8 Plain Text
Продолжительность : 1 ч. 46 м.
Битрейт : 29 бит/сек
ElementCount : 1107
Размер потока : 23,1 Кбайт (0%)
Язык : English
Default : Нет
Forced : Нет
Меню
00:00:00.000 : en:00:00:00.000
00:04:34.607 : en:00:04:34.607
00:08:16.078 : en:00:08:16.078
00:10:45.519 : en:00:10:45.519
00:17:42.436 : en:00:17:42.436
00:21:32.290 : en:00:21:32.290
00:31:17.208 : en:00:31:17.208
00:38:52.788 : en:00:38:52.788
00:47:17.960 : en:00:47:17.960
00:53:52.562 : en:00:53:52.562
00:57:19.561 : en:00:57:19.561
01:00:23.661 : en:01:00:23.661
01:06:08.547 : en:01:06:08.547
01:13:48.674 : en:01:13:48.674
01:17:30.979 : en:01:17:30.979
01:22:54.219 : en:01:22:54.219
01:30:49.402 : en:01:30:49.402
01:34:50.017 : en:01:34:50.017
01:38:17.349 : en:01:38:17.349

Скриншоты


[Профиль] [ЛС]
Показать сообщения:    
Ответить на тему

Текущее время: 23-Фев 00:01

Часовой пояс: UTC + 3



Вы не можете начинать темы
Вы не можете отвечать на сообщения
Вы не можете редактировать свои сообщения
Вы не можете удалять свои сообщения
Вы не можете голосовать в опросах
Вы не можете прикреплять файлы к сообщениям
Вы можете скачивать файлы