BitTorrent клиенты



Я герой / I Am a Hero / Aiamuahiro (Синсуке Сато / Shinsuke Sato) [2015, Япония, ужасы, боевик, BDRip 720p] DVO (DeadSno & Den904) + Sub Jap + Original Jap

Ответить на тему
 
Автор Сообщение

Angel ®

Пол: Не указан

Стаж: 1 год

Сообщений: 1346

Создавать темы 05-Фев-2018 18:18

[Цитировать]

Я герой / I Am a Hero / Aiamuahiro
Страна: Япония
Жанр: Ужасы, боевик
Год выпуска: 2015
Продолжительность: 02:06:34
Перевод: Любительский (двухголосый закадровый) DeadSno & Den904
Субтитры: японские
Оригинальная аудиодорожка: японские
Режиссер: Синсуке Сато / Shinsuke Sato
В ролях: Масами Нагасава, Михо Судзуки, Касуми Аримура, Ё Оидзуми, Нана Катасэ, Ю Ёсидзава, Макита Супоцу, Ёсинори Окада, Муга Цукадзи, Дзин Катагири
Описание: Однажды возвращаясь с работы поздно вечером, Хидэо становится свидетелем ДТП, в результате которого автомобиль сбивает человека насмерть. Однако, несмотря на тяжелые травмы, включая перелом шеи, тело жертвы встает и уходит. Хидэо задается вопросом, была ли это одна из его галлюцинаций, но странные события начинают происходить вокруг него.
Сэмпл: http://sendfile.su/1341901
Тип релиза: BDRip 720p [WiKi]
Контейнер: MKV
Видео: 1280x536 (2.40:1), 23.976 fps, AVC, ~5002 Kbps, 0.304 bits/pixel
Аудио: Russian, 48.0 KHz, AC3, 2 ch, 192 Kbps
Аудио 2: Japanese, 48.0 KHz, AC3, 6 ch, 640 Kbps
Формат субтитров: softsub (SRT)

MediaInfo

General
Unique ID : 185129502828906496344449458912609644016 (0x8B46A532F4A4586E87925F35D99B2DF0)
Complete name : D:\I.Am.a.Hero.2016.720p.BDRip.mkv
Format : Matroska
Format version : Version 4 / Version 2
File size : 5.16 GiB
Duration : 2h 6mn
Overall bit rate : 5 834 Kbps
Encoded date : UTC 2017-06-03 03:49:50
Writing application : mkvmerge v7.4.0 ('Circles') 64bit built on Dec 12 2014 12:19:56
Writing library : libebml v1.3.0 + libmatroska v1.4.1
_STATISTICS_WRITING_APP : mkvmerge v7.4.0 ('Circles') 64bit built on Dec 12 2014 12:19:56
_STATISTICS_WRITING_DATE_UTC : 2017-06-03 03:49:50
_STATISTICS_TAGS : BPS DURATION NUMBER_OF_FRAMES NUMBER_OF_BYTES
DURATION : 02:05:01.202000000
NUMBER_OF_FRAMES : 1356
NUMBER_OF_BYTES : 44372
Video
ID : 1
Format : AVC
Format/Info : Advanced Video Codec
Format profile : High@L4.1
Format settings, CABAC : Yes
Format settings, ReFrames : 12 frames
Codec ID : V_MPEG4/ISO/AVC
Duration : 2h 6mn
Bit rate : 5 002 Kbps
Width : 1 280 pixels
Height : 536 pixels
Display aspect ratio : 2.40:1
Frame rate mode : Constant
Frame rate : 23.976 fps
Color space : YUV
Chroma subsampling : 4:2:0
Bit depth : 8 bits
Scan type : Progressive
Bits/(Pixel*Frame) : 0.304
Stream size : 4.32 GiB (84%)
Writing library : x264 core 129 r2245+704+36 8e61944 tMod+MixAQ [8-bit@4:2:0 X86_64]
Encoding settings : cabac=1 / ref=12 / deblock=1:-3:-3 / analyse=0x3:0x133 / me=umh / subme=11 / psy=1 / fade_compensate=0.00 / psy_rd=1.05:0.10 / mixed_ref=1 / me_range=32 / chroma_me=1 / trellis=2 / 8x8dct=1 / cqm=0 / deadzone=21,11 / fast_pskip=0 / chroma_qp_offset=-3 / threads=18 / lookahead_threads=3 / sliced_threads=0 / nr=0 / decimate=0 / interlaced=0 / bluray_compat=0 / constrained_intra=0 / fgo=0 / bframes=10 / b_pyramid=2 / b_adapt=2 / b_bias=0 / direct=3 / weightb=1 / open_gop=0 / weightp=2 / keyint=250 / keyint_min=23 / scenecut=40 / intra_refresh=0 / rc_lookahead=80 / rc=2pass / mbtree=1 / bitrate=5002 / ratetol=1.0 / qcomp=0.70 / qpmin=0 / qpmax=69 / qpstep=4 / cplxblur=20.0 / qblur=0.5 / ip_ratio=1.40 / aq=1 / aq-strength=0.85 / aq-sensitivity=10.00 / aq-ifactor=1.00 / aq-pfactor=1.00 / aq-bfactor=1.00 / aq2=0
Language : Japanese
Default : Yes
Forced : No
Matrix coefficients : BT.709
_STATISTICS_WRITING_APP : mkvmerge v7.4.0 ('Circles') 64bit built on Dec 12 2014 12:19:56
_STATISTICS_WRITING_DATE_UTC : 2017-06-03 03:49:50
_STATISTICS_TAGS : BPS DURATION NUMBER_OF_FRAMES NUMBER_OF_BYTES
DURATION : 02:06:34.587000000
NUMBER_OF_FRAMES : 182088
NUMBER_OF_BYTES : 4746157895
Audio #1
ID : 2
Format : AC-3
Format/Info : Audio Coding 3
Mode extension : CM (complete main)
Format settings, Endianness : Big
Codec ID : A_AC3
Duration : 2h 6mn
Bit rate mode : Constant
Bit rate : 192 Kbps
Channel(s) : 2 channels
Channel positions : Front: L R
Sampling rate : 48.0 KHz
Bit depth : 16 bits
Compression mode : Lossy
Stream size : 174 MiB (3%)
Language : Russian
Default : Yes
Forced : No
Audio #2
ID : 3
Format : AC-3
Format/Info : Audio Coding 3
Mode extension : CM (complete main)
Format settings, Endianness : Big
Codec ID : A_AC3
Duration : 2h 6mn
Bit rate mode : Constant
Bit rate : 640 Kbps
Channel(s) : 6 channels
Channel positions : Front: L C R, Side: L R, LFE
Sampling rate : 48.0 KHz
Bit depth : 16 bits
Compression mode : Lossy
Stream size : 579 MiB (11%)
Language : Japanese
Default : No
Forced : No
Text
ID : 4
Format : UTF-8
Codec ID : S_TEXT/UTF8
Codec ID/Info : UTF-8 Plain Text
Language : Japanese
Default : No
Forced : No
Menu
00:00:00.000 : en:00:00:00.000
00:12:17.737 : en:00:12:17.737
00:20:58.840 : en:00:20:58.840
00:30:02.383 : en:00:30:02.383
00:35:05.103 : en:00:35:05.103
00:41:05.045 : en:00:41:05.045
00:50:43.081 : en:00:50:43.081
00:56:39.687 : en:00:56:39.687
01:06:54.010 : en:01:06:54.010
01:17:36.902 : en:01:17:36.902
01:21:00.480 : en:01:21:00.480
01:25:46.766 : en:01:25:46.766
01:32:42.974 : en:01:32:42.974
01:44:07.199 : en:01:44:07.199
01:54:12.387 : en:01:54:12.387

Скриншоты

[Профиль] [ЛС]
Показать сообщения:    
Ответить на тему

Текущее время: 20-Фев 06:48

Часовой пояс: UTC + 3



Вы не можете начинать темы
Вы не можете отвечать на сообщения
Вы не можете редактировать свои сообщения
Вы не можете удалять свои сообщения
Вы не можете голосовать в опросах
Вы не можете прикреплять файлы к сообщениям
Вы можете скачивать файлы