Статистика раздачи
Размер:  1,33 GB   |    Зарегистрирован:  6 месяцев 4 дня   |    Скачан:  0 раз

Полного источника не было: Никогда

Личеров:  10  [  0 KB/s  ]  
 
   
 
 

Ласточка ®

Пол:
Не указан
Стаж:
6 месяцев 5 дней
Сообщений:
451

Улица младшего сына
Год выпуска: 1962
Жанр: Детский, Военный
Продолжительность: 01:34:21
Режиссер: Лев Голуб
В ролях: Борис Битюков, Е. Бондаренко, А. Корнев, Т. Кресик, В. Ушакова, П. Пекур, И. Шатилло, Т. Муженко.
Описание: В приморском городе Керчь живет мальчишка Володя. На уроках зачитывается книгой о Чкалове. Конструирует планеры, которые летают дальше других, возится возится с малышами из подшефного класса. Когда начинается Великая Отечественная война, отец уходит на фронт, а Володя добивается что бы его взяли в партизанский отряд...

Качество: VHSRip
Формат: AVI
Видео кодек: XviD
Аудио кодек: MP3
Видео: 696х568 (1,225:1),23,976 fps, XviD MPEG-4~1811 kbps avg, 0,191 bit/pixel
Аудио: 44,100 KHz, MPEG Layer 3,2 ch,~192 000 kgps avg

MediaInfo

General
Complete name : E:\Улица_младнего_сына.avi
Format : AVI
Format/Info : Audio Video Interleave
File size : 1.33 GiB
Duration : 1h 34mn
Overall bit rate : 2 012 Kbps
Movie name : Улица младшего сына
Director : chizhik
Genre : Child's
Original source form/Name : Movie
Copyright : vas8084
Comment : Ripped for www.torrents.ru
Video
ID : 0
Format : MPEG-4 Visual
Format profile : Advanced Simple@L5
Format settings, BVOP : 2
Format settings, QPel : No
Format settings, GMC : No warppoints
Format settings, Matrix : Default (H.263)
Muxing mode : Packed bitstream
Codec ID : XVID
Codec ID/Hint : XviD
Duration : 1h 34mn
Bit rate : 1 811 Kbps
Width : 696 pixels
Height : 568 pixels
Display aspect ratio : 1.225
Frame rate : 23.976 fps
Color space : YUV
Chroma subsampling : 4:2:0
Bit depth : 8 bits
Scan type : Progressive
Compression mode : Lossy
Bits/(Pixel*Frame) : 0.191
Stream size : 1.19 GiB (90%)
Writing library : XviD 1.2.1 (UTC 2008-12-04)
Audio
ID : 1
Format : MPEG Audio
Format version : Version 1
Format profile : Layer 3
Codec ID : 55
Codec ID/Hint : MP3
Duration : 1h 34mn
Bit rate mode : Constant
Bit rate : 192 Kbps
Channel count : 2 channels
Sampling rate : 44.1 KHz
Compression mode : Lossy
Delay relative to video : 26ms
Stream size : 130 MiB (10%)
Alignment : Split accross interleaves
Interleave, duration : 42 ms (1.00 video frame)
Interleave, preload duration : 500 ms

Скриншоты


[www.cybertorrent.ru].t1043.torrent 
Торрент: Зарегистрирован [ 2018-02-16 01:15 ] · F687FA71584773062F67EA0DA268C388E7CF0188

Скачать .torrent

Скачать

14 KB

Статус: проверено
Скачан: 0 раз
Размер: 1,33 GB
Профиль [ЛС]
Показать сообщения:    

Текущее время: 20-Авг 12:17

Часовой пояс: UTC ± 0



Вы не можете начинать темы
Вы не можете отвечать на сообщения
Вы не можете редактировать свои сообщения
Вы не можете удалять свои сообщения
Вы не можете голосовать в опросах
Вы не можете прикреплять файлы к сообщениям
Вы можете скачивать файлы
Torrents24.ru открытый BitTorrent Torrents24.pl открытый BitTorrent CyberTorrent.ru открытый BitTorrent BtList.ru рейтинг BitTorrent трекеров Яндекс.Метрика