BitTorrent клиенты



Братья Гримм / The Brothers Grimm (Терри Гиллиам) [2005, ужасы, триллер, фэнтези, комедия, приключения, BDRip 1080p]

Ответить на тему
 
Автор Сообщение

Вектор ®

Пол: Не указан

Стаж: 1 год

Сообщений: 4452

Создавать темы 05-Фев-2018 18:13

[Цитировать]

Братья Гримм / The Brothers Grimm
Год выпуска: 2005
Страна: США
Жанр: ужасы, триллер, фэнтези, комедия, приключения
Продолжительность: 01:58:28
Перевод: Профессиональный (полное дублирование) и Профессиональный двухголосый.
Русские субтитры: есть
Режиссер: Терри Гиллиам
В ролях: Мэтт Дэймон, Хит Леджер, Анна Руст, Джереми Робсон, Петр Ратимец, Барбора Лукесова, Радим Калвода, Мартин Хофманн, Джозеф Пепа Нос, Гарри Гиллиам, Мирослав Таборски, Роджер Эштон-Гриффитс, Марика Сара Прочазкова, Маккензи Крук, Ричард Райдингс, Алена Якобова, Рудольф Пеллар, Дэна Доналова, Петра Доналова, Ханус Бор, Ота Филип
Описание: Давным-давно, жили-были два брата-авантюриста Уилл и Джейк Гримм, которые впоследствии стали знаменитыми сказочниками. Но до того они путешествовали по деревушкам, занимаясь собиранием фольклора и 'прогоняя нечисть' за деньги… Приезжали в деревню, убеждали жителей, что на их мельнице поселилась ведьма, а потом - за вознаграждение - успешно «изгоняли» ее. В следующем селе это был тролль под мостом и так далее.
Но однажды слава об «экзорцистах» дошла до наполеоновских властей, которые приказали братьям расследовать серию загадочных исчезновений юных девушек в лесу на границе Франции и Германии. Тут-то наши герои и сталкиваются нос к носу с настоящей нечистью - злой колдуньей… Уиллу и Джейку придется проявить все свои незаурядные способности, ведь в случае неудачи горе-детективов ждет гильотина...
Качество: BDRip
Формат: MKV
Видео кодек: H.264
Аудио кодек: DTS
Видео: 1920x1040, x264, 23.976 fps, ~8845 kbit/s
Аудио: Русский DTS 5.1, 768 kbps (дубляж); Русский DTS 5.1, 1536 kbps (П.Гланц и И.Королёва, отдельно); Aнглийский DTS 5.1, 1536 kbps (отдельно).
Субтитры: Русские (srt), Английские (srt)

MediaInfo

General
Unique ID : 170188949785110071677061415434316950392 (0x8009330FC70BD1178DEE46335A042B78)
Complete name : F:\new2\hqf-bg.1080\hqf-bg.1080.mkv
Format : Matroska
Format version : Version 1
File size : 7.95 GiB
Duration : 1 h 58 min
Overall bit rate : 9 604 kb/s
Movie name : -=HANSMER=- (HQ-Films.ws)
Encoded date : UTC 2008-06-29 10:45:48
Writing application : mkvmerge v2.2.0 ('Turn It On Again') built on Mar 4 2008 13:20:25
Writing library : libebml v0.7.7 + libmatroska v0.8.1
Video
ID : 1
Format : AVC
Format/Info : Advanced Video Codec
Format profile : High@L4.1
Format settings : CABAC / 4 Ref Frames
Format settings, CABAC : Yes
Format settings, RefFrames : 4 frames
Codec ID : V_MPEG4/ISO/AVC
Duration : 1 h 58 min
Bit rate : 8 845 kb/s
Width : 1 920 pixels
Height : 1 040 pixels
Display aspect ratio : 1.85:1
Frame rate mode : Constant
Frame rate : 23.976 FPS
Color space : YUV
Chroma subsampling : 4:2:0
Bit depth : 8 bits
Scan type : Progressive
Bits/(Pixel*Frame) : 0.185
Stream size : 7.17 GiB (90%)
Title : The.Brothers.Grimm.2005.Blu-Ray.1080p.x264-HQF
Writing library : x264 core 60 r883M cfaac5c
Encoding settings : cabac=1 / ref=4 / deblock=1:-3:-3 / analyse=0x3:0x113 / me=umh / subme=6 / brdo=1 / mixed_ref=1 / me_range=24 / chroma_me=1 / trellis=1 / 8x8dct=1 / cqm=2 / deadzone=21,11 / chroma_qp_offset=0 / threads=6 / nr=0 / decimate=1 / mbaff=0 / fgo=10 / bframes=3 / b_pyramid=1 / b_adapt=1 / b_bias=0 / direct=3 / wpredb=1 / bime=1 / keyint=150 / keyint_min=25 / scenecut=40(pre) / rc=2pass / bitrate=8845 / ratetol=1.0 / rceq='blurCplx^(1-qComp)' / qcomp=1.00 / qpmin=10 / qpmax=51 / qpstep=4 / cplxblur=20.0 / qblur=0.5 / ip_ratio=1.40 / pb_ratio=1.15 / aq=2:0.50
Language : English
Default : Yes
Forced : No
Audio
ID : 2
Format : DTS
Format/Info : Digital Theater Systems
Mode : 16
Format settings, Endianness : Big
Codec ID : A_DTS
Duration : 1 h 58 min
Bit rate mode : Constant
Bit rate : 755 kb/s
Channel(s) : 6 channels
Channel positions : Front: L C R, Side: L R, LFE
Sampling rate : 48.0 kHz
Frame rate : 93.750 FPS (512 SPF)
Bit depth : 24 bits
Compression mode : Lossy
Stream size : 639 MiB (8%)
Language : Russian
Default : Yes
Forced : No
Text #1
ID : 3
Format : UTF-8
Codec ID : S_TEXT/UTF8
Codec ID/Info : UTF-8 Plain Text
Language : Russian
Default : Yes
Forced : No
Text #2
ID : 4
Format : UTF-8
Codec ID : S_TEXT/UTF8
Codec ID/Info : UTF-8 Plain Text
Language : English
Default : No
Forced : No

Скриншоты

[Профиль] [ЛС]
Показать сообщения:    
Ответить на тему

Текущее время: 21-Фев 23:41

Часовой пояс: UTC + 3



Вы не можете начинать темы
Вы не можете отвечать на сообщения
Вы не можете редактировать свои сообщения
Вы не можете удалять свои сообщения
Вы не можете голосовать в опросах
Вы не можете прикреплять файлы к сообщениям
Вы можете скачивать файлы