BitTorrent клиенты



Феномен / Phenomenon (Джон Тёртелтауб / Jon Turteltaub) [1996, фэнтези, мелодрама, драма, HDTV 1080i]

Ответить на тему
 
Автор Сообщение

Вектор ®

Пол: Не указан

Стаж: 1 год

Сообщений: 4452

Создавать темы 05-Фев-2018 18:19

[Цитировать]

Феномен / Phenomenon
-Год выпуска: 1996
Страна: США
Жанр: фэнтези, мелодрама, драма
Продолжительность: 01:58:00
Перевод: Профессиональный (многоголосый, закадровый) + Ю.Живов + П.Санаев + оригинал (отдельным файлом)
Русские субтитры: нет-Режиссер: Джон Тёртелтауб / Jon Turteltaub
В ролях: Джон Траволта, Кира Седжвик, Форест Уитакер, Роберт Дювалл, Джеффри ДеМун, Ричард Кайли, Брент Спайнер, Вито Руджинис, Брюс А. Янг, Майкл Милхоун-Описание: Автомеханик Джордж Молли безнадежно влюблен в очаровательную женщину, которая недавно переехала в его город. Она не хочет завязывать новых отношений, и незадачливому поклоннику может помочь только чудо. И оно происходит…-Доп. информация:
Кинопоиск: 7.948 (1027)
IMDB: 6.30 (24 266)-Релиз:
Раздача от: |
За релиз большое спасибо sergey_n-

Знаете ли Вы, что...

* Помимо того, что картина снималась в американских городах Обрин, Остин, Дэвис, Сакраменто, Санта Роза, Тусса, съемки происходили также и в Канаде, в провинции Онтарио, где расположен город с оригинальным названием Лондон.
* В эпизоде, когда Джордж расшифровывает сигналы беглой азбуки Морзе, на самом деле – это звуки, которые можно услышать при передаче старомодного телекса.
* Некоторые рецензенты усмотрели в этой картине пропаганду сайентологии (Джон Траволта активный член этого течения), а также на новый подход к осмыслению жизни Иисуса Христа.

Знаете ли Вы, что...

Всё-таки удивительные, поистине феноменальные перемены происходят в этой весьма популярной у американских зрителей (бюджет в размере $32 млн. был превзойдён более чем в три раза) картине, которую снял режиссёр Джон Тёртелтауб как бы в развитие своего предшествующего успеха в схожем жанре фантазийной мелодрамы («Пока ты спал»). Сначала главный герой «Феномена», провинциальный автомеханик Джордж Мэлли, считаемый в лучшем случае недотёпой, стал уверять всех в день собственного 37-летия, что получил световой удар от некоего инопланетного объекта и из-за этого резко поумнел. А потом действительно смог продемонстрировать вдруг приобретённые им экстрасенсорные способности.
Надо заметить, что подобная метаморфоза героя в исполнении Джона Травольты воспринималась в те годы не без особого юмора в связи с почти магическим возвращением этого голливудского актёра на звёздный Олимп после его появления в «Криминальном чтиве» Квентина Тарантино. Но «Феномен», будучи доброй и душевной комедией с элементами фантастики (видимо, такое сочетание теперь наиболее любимо публикой), внезапно превращается ближе к финалу в ещё более трогательную трагикомическую историю про совсем неглупого дурачка — вполне в стиле оскароносного фильма «Форрест Гамп» Роберта Земекиса.
-Качество: HDTV
Формат: TS
Видео кодек: MPEG-4 AVC
Аудио кодек: AC3
Видео: 1920x1080 at 25.000 fps, MPEG-4 AVC, ~6272 Kbps avg
Аудио: Russian: 48 kHz, AC3, 2/0 (L,R), ~192.00 kbps avg |Многоголосый закадровый|
Аудио: Russian: 48 kHz, AC3, 2/0 (L,R), ~192.00 kbps avg |Одноголосый закадровый, Ю.Живов|
Аудио: Russian: 48 kHz, AC3, 2/0 (L,R), ~192.00 kbps avg |Одноголосый закадровый, П.Санаев|
Аудио: English: 48 kHz, AC3, 3/2 (L,C,R,l,r) + LFE ch, ~384.00 kbps (отдельным файлом)

MediaInfo

General
ID : 1 (0x1)
Complete name : C:\torrent\Phenomenon.1996.1080i.HDTV.3xRus.Eng.HDCLUB\Phenomenon.1996.1080i.HDTV.3xRus.Eng.HDCLUB.ts
Format : MPEG-TS
File size : 5.88 GiB
Duration : 1 h 58 min
Overall bit rate mode : Variable
Overall bit rate : 7 131 kb/s
Maximum Overall bit rate : 35.5 Mb/s
Video
ID : 4113 (0x1011)
Menu ID : 1 (0x1)
Format : AVC
Format/Info : Advanced Video Codec
Format profile : Main@L4
Format settings : CABAC / 4 Ref Frames
Format settings, CABAC : Yes
Format settings, RefFrames : 4 frames
Format settings, GOP : M=4, N=13
Codec ID : 27
Duration : 1 h 58 min
Bit rate mode : Variable
Bit rate : 6 197 kb/s
Maximum bit rate : 40.0 Mb/s
Width : 1 920 pixels
Height : 1 080 pixels
Display aspect ratio : 16:9
Frame rate : 25.000 FPS
Color space : YUV
Chroma subsampling : 4:2:0
Bit depth : 8 bits
Scan type : Interlaced
Scan type, store method : Separated fields
Scan order : Top Field First
Bits/(Pixel*Frame) : 0.120
Stream size : 5.11 GiB (87%)
Color range : Limited
Color primaries : BT.709
Transfer characteristics : BT.709
Matrix coefficients : BT.709
Audio #1
ID : 4352 (0x1100)
Menu ID : 1 (0x1)
Format : AC-3
Format/Info : Audio Coding 3
Codec ID : 129
Duration : 1 h 58 min
Bit rate mode : Constant
Bit rate : 192 kb/s
Channel(s) : 2 channels
Channel positions : Front: L R
Sampling rate : 48.0 kHz
Frame rate : 31.250 FPS (1536 SPF)
Bit depth : 16 bits
Compression mode : Lossy
Stream size : 162 MiB (3%)
Language : Russian
Service kind : Complete Main
Audio #2
ID : 4353 (0x1101)
Menu ID : 1 (0x1)
Format : AC-3
Format/Info : Audio Coding 3
Codec ID : 129
Duration : 1 h 58 min
Bit rate mode : Constant
Bit rate : 192 kb/s
Channel(s) : 2 channels
Channel positions : Front: L R
Sampling rate : 48.0 kHz
Frame rate : 31.250 FPS (1536 SPF)
Bit depth : 16 bits
Compression mode : Lossy
Stream size : 162 MiB (3%)
Language : Russian
Service kind : Complete Main
Audio #3
ID : 4354 (0x1102)
Menu ID : 1 (0x1)
Format : AC-3
Format/Info : Audio Coding 3
Codec ID : 129
Duration : 1 h 58 min
Bit rate mode : Constant
Bit rate : 192 kb/s
Channel(s) : 2 channels
Channel positions : Front: L R
Sampling rate : 48.0 kHz
Frame rate : 31.250 FPS (1536 SPF)
Bit depth : 16 bits
Compression mode : Lossy
Stream size : 162 MiB (3%)
Language : Russian
Service kind : Complete Main

Скриншоты

[Профиль] [ЛС]
Показать сообщения:    
Ответить на тему

Текущее время: 21-Фев 23:32

Часовой пояс: UTC + 3



Вы не можете начинать темы
Вы не можете отвечать на сообщения
Вы не можете редактировать свои сообщения
Вы не можете удалять свои сообщения
Вы не можете голосовать в опросах
Вы не можете прикреплять файлы к сообщениям
Вы можете скачивать файлы